Молодой Морс / Endeavour / Сезон: 8 / Серии: 1-3 из 3 (Колм МакКарти, Джеффри Сакс, Энди Уилсон) [2021, Великобритания, Драма, криминал, детектив, WEB-DLRip] MVO (Iyuno-SDI Group) + Original

Страницы:  1
Ответить
 

rafwan123

Top Loader 04* 1TB

Стаж: 11 лет 8 месяцев

Сообщений: 1587

rafwan123 · 31-Дек-21 09:34 (8 месяцев назад)

Молодой Морс / Endeavour
Год выпуска: 2021
Страна: Великобритания
Жанр: Драма, криминал, детектив
Продолжительность: 3 х ~ 01:28:26
Перевод: Профессиональный (многоголосый закадровый) Iyuno-SDI Group
Режиссёр: Колм МакКарти, Джеффри Сакс, Энди Уилсон
В ролях: Шон Эванс, Роджер Аллам, Джеймс Брэдшоу, Энтон Лессер, Шон Ригби, Кэролайн О’Нилл, Сара Викерз, Эбигейл Тоу, Джек Лэски и другие
Описание: 1965 год. Эндевор Морс расследует пропажу школьницы, по ходу дела понимая, что возвращается обратно в Оксфорд — к месту, которое вскоре решит его дальнейшую судьбу. Он принимает участие в крупном расследовании убийства, главным инспектором которого является Фред Фёрсдей. Эндевор оказывается в тупике и его отстраняют от дела. Вновь столкнувшись со своим не очень приятным прошлым, он решает начать поход во имя справедливости. Ему придется столкнуться с множеством неприятностей….
Доп. информация:
Переведено и озвучено компанией Iyuno-SDI Group Москва
Перевод: Елена Совчак
Роли дублировали: Мария Овчинникова, Олег Куценко, Олег Новиков, Илья Хвостиков
Запись сериала, рип и синхронизация звука - rafwan123
Сэмпл: https://www.sendspace.com/file/hiv49h
Качество: WEB-DLRip
Формат: AVI
Видео: XviD, 720x400 (16:9), 25 fps, ~ 1539 Kbps
Аудио 1: AC3, 48.0 KHz, 2 ch, 192 Kbps | Iyuno-SDI Group
Аудио 2: AC3, 48.0 KHz, 2 ch, 192 Kbps | Original
Субтитры: Отсутствуют
Реклама: Отсутствует
Список серий
1. Нападающий
2. Скерцо
3. Конечная остановка
MediaInfo
Общее
Полное имя : E:\Endeavour.S08.MVO.Iyuno-SDI.Group.WEB-DLRip\Endeavour.S08E01.MVO.Iyuno-SDI.Group.WEB-DLRip.avi
Формат : AVI
Формат/Информация : Audio Video Interleave
Размер файла : 1,20 Гбайт
Продолжительность : 1 ч. 28 м.
Общий поток : 1938 Кбит/сек
Программа кодирования : VirtualDubMod 1.5.10.2 (build 2542/release)
Библиотека кодирования : VirtualDubMod build 2542/release
Видео
Идентификатор : 0
Формат : MPEG-4 Visual
Профиль формата : Advanced [email protected]
Настройки формата : BVOP2 / Custom Matrix
Параметр BVOP формата : 2
Параметр QPel формата : Нет
Параметр GMC формата : Без точки перехода
Параметр матрицы формата : Выборочная
Идентификатор кодека : XVID
Идентификатор кодека/Подсказка : XviD
Продолжительность : 1 ч. 28 м.
Битрейт : 1539 Кбит/сек
Ширина : 720 пикселей
Высота : 400 пикселей
Соотношение сторон : 16:9
Частота кадров : 25,000 кадров/сек
Цветовое пространство : YUV
Субдискретизация насыщенности : 4:2:0
Битовая глубина : 8 бит
Тип развёртки : Прогрессивная
Метод сжатия : С потерями
Бит/(Пиксели*Кадры) : 0.214
Размер потока : 974 Мбайт (79%)
Библиотека кодирования : XviD 1.2.1 (UTC 2008-12-04)
Аудио #1
Идентификатор : 1
Формат : AC-3
Формат/Информация : Audio Coding 3
Коммерческое название : Dolby Digital
Идентификатор кодека : 2000
Продолжительность : 1 ч. 28 м.
Вид битрейта : Постоянный
Битрейт : 192 Кбит/сек
Каналы : 2 канала
ChannelLayout : L R
Частота : 48,0 КГц
Частота кадров : 31,250 кадров/сек (1536 SPF)
Метод сжатия : С потерями
Размер потока : 121 Мбайт (10%)
Выравнивание : Разделение по промежуткам
Продолжительность промежутка : 40 мс. (1,00 видеокадр)
Время предзагрузки промежутка : 500 мс.
ServiceKind/String : Complete Main
Аудио #2
Идентификатор : 2
Формат : AC-3
Формат/Информация : Audio Coding 3
Коммерческое название : Dolby Digital
Идентификатор кодека : 2000
Продолжительность : 1 ч. 28 м.
Вид битрейта : Постоянный
Битрейт : 192 Кбит/сек
Каналы : 2 канала
ChannelLayout : L R
Частота : 48,0 КГц
Частота кадров : 31,250 кадров/сек (1536 SPF)
Метод сжатия : С потерями
Размер потока : 121 Мбайт (10%)
Выравнивание : Разделение по промежуткам
Продолжительность промежутка : 40 мс. (1,00 видеокадр)
Время предзагрузки промежутка : 500 мс.
ServiceKind/String : Complete Main
Скриншоты
Предыдущие и альтернативные раздачи
Download
Rutracker.org не распространяет и не хранит электронные версии произведений, а лишь предоставляет доступ к создаваемому пользователями каталогу ссылок на торрент-файлы, которые содержат только списки хеш-сумм
Как скачивать? (для скачивания .torrent файлов необходима регистрация)
[Профиль]  [ЛС] 

poseidon_83

Стаж: 12 лет 1 месяц

Сообщений: 222

poseidon_83 · 12-Мар-22 20:47 (спустя 2 месяца 12 дней)

Спасибо за новый сезон отличнейшего сериала!!!
[Профиль]  [ЛС] 

PsyХo

Top Loader 01* 100GB

Стаж: 7 лет 11 месяцев

Сообщений: 4339

PsyХo · 21-Мар-22 02:58 (спустя 8 дней)

сэмпл'а нет, пишет файл удален
[Профиль]  [ЛС] 
 
Ответить
Loading...
Error